JAZZ, ART-ROCK И ДРУГАЯ ХОРОШАЯ МУЗЫКА
/ Каталог файлов

Rein Rannap, 1986 - Solo Improvisations [LP]

Добавил санди 30.06.2012 в 12:05
Style: Jazz
Country: Estonia
Format:
Lossless / Flac
mp3 / 320 kbps
Size: 682 Mb / 85,1 Mb

Artwork Included

Tracks Listing:
1. Improvisation #1 - 10.19
2. Improvisation #2 - 7.10
3. Improvisation #3 - 9.51
4. Improvisation #4 - 7.46

Line Up:

Rein Rannap - piano

Lossless - The Main Link
Mp3 - Link 1

6 комментариев

Stepan Спам
30.06.2012 в 23:39 | материал - Ответить
у меня этот шедевр был где-то в 128 кбпс
но все же 42 Мю поменять сразу на 682...
можно както в мп3

нов сем советую!
шедевр нереальный
при чем джаза я не слушаю.
это не совсем джаз... даже пояснить не могу
короче шедевр и все!
Stepan Спам
02.07.2012 в 02:30 | материал - Ответить
я скачал
а оно после первых секунд каждого трека останавливается и не играет дальше
Boruhman Спам
02.07.2012 в 19:53 | материал - Ответить
У меня есть оба винила, но как их сриповать не знаю, мне сказали что приличный звук получиться только с профессиональным "звучком", но у нас такие трудно найти, да и дорого. Слушаю на старом проигрывателе. А по стилю это скорее фолк-прог, гипнотизирующий, обволакивающий и уносящий куда-то. Обалденная музыка. Если удастся кому-то выложить в мр3 - скачаю обязательно
санди Спам
02.07.2012 в 20:19 | материал - Ответить
обязательно переведу в мр3 , но не сегодня. Траблы с инетом....
Boruhman Спам
03.07.2012 в 23:47 | материал - Ответить
Низкий поклон ! Нет , правда спасибо большое !
Slavonn Спам
04.07.2012 в 01:03 | материал - Ответить
Не знаю как у кого у меня фубар CUE файлы с русским текстом не понимает
вот у кого такая же беда я отредактировал этот CUE smile

REM GENRE Jazz
REM DATE 1986
PERFORMER "Rein Rannap"
TITLE "1986-Solo Improvisations"
FILE "Solo Improvisations by Rein Rannap.flac" WAVE
TRACK 01 AUDIO
TITLE "Improvisation on G. Gershwin's 'Summertime'"
INDEX 01 00:00:00
TRACK 02 AUDIO
TITLE "Self-Portrait in the Rhythm of a Jazz Waltz"
INDEX 01 10:23:43
TRACK 03 AUDIO
TITLE "Sailing Clouds "
INDEX 01 17:30:49
TRACK 04 AUDIO
TITLE "Improvisation on J. Tizol's 'Caravan'"
INDEX 01 27:17:47


Откройте куй в блокноте, замените тамошнюю начинку на эту, сохраните и потом переименуйте сам Flac на Solo Improvisations by Rein Rannap

и будет все горазд
smile

Оставить комментарий

Подписка:1
Код *: